rarbg torrents
Catalog Top 10

Home
RARBG
Movies
XXX
TV Shows
Games
Music
Anime
Apps
Doc
Other
Non XXX

B.B. King.- 1982-10-05 - Austin City Limits - GRNS3

Torrent: B.B. King.- 1982-10-05 - Austin City Limits - GRNS3
VPN:
Downloading torrents is getting riskier every day. Use a VPN to make yourself hidden while downloading torrents.
By using a VPN , your ISP and Government Agencies will not be able to spy on you, neither would they be able to track your online activity!
Description:

Here is an excellent vintage bootleg with a great performance by B.B. King..Recommended for fans.

Please enjoy, share with friends and please seed :) > i can't do it all alone! You can help by keeping this music alive :)
I really want to share more rare stuff that is not available in shops, but i need your help to keep my collection alive for all, now over 1600 concerts still available for you!

Stuff like this needs to be preserved for future generations of music lovers.
Thanks to all the peers from everywhere seeding my huge archive, i love you!
Look for my music archive here: https://1337x.to/user/GRNS3/
========================================================

B.B. King
"Austin City Limits," KLRU-TV Studio 6A
Austin, TX
October 5, 1982

(first TV broadcast in 1983; rebroadcast on July 5, 2015)
Lineage: digital cable > TiVo box > PC via kmttg > VideoReDo > .ts file
Duration = 00:50:30 -

01. Every Day I Have The Blues
[02. Night Life - removed = officially released on the CD "Big Blues Extravaganza: Best of Austin City Limits"]
03. "untitled instrumental"
04. Since I Met You Baby
05. Love Me Tender
06. I Got Some Help I Don't Need
07. When It All Comes Down
08. One Of Those Nights
09. You & Me, Me & You
10. Guess Who
11. The Thrill Is Gone

B.B. King - guitar, vocals
Calvin Owens - trumpet
James Bolden - trumpet
Edgar Synigal - sax
Leon Warren - guitar
Joseph Carrier - keyboards
Russel Jackson - bass
Herman Jackson - drums

- Video Attributes -
ID: 224 (0xE0)
Menu ID: 1 (0x1)
Format: MPEG Video
Format version: Version 2
Format profile: [email protected]
Format settings: CustomMatrix / BVOP
Format settings, BVOP: Yes
Format settings, Matrix: Custom
Format settings, GOP: Variable
Format settings, picture structure: Frame
Codec ID: 2
Bit rate mode: Variable
Bit rate: 8 059 kb/s
Maximum bit rate: 80.0 Mb/s
Width: 1 920 pixels
Height: 1 080 pixels
Display aspect ratio: 16:9
Active Format Description: Full frame 16:9 image
Frame rate: 29.970 (30000/1001) FPS
Color space: YUV
Chroma subsampling: 4:2:0
Bit depth: 8 bits
Scan type: Interlaced
Scan order: Top Field First
Compression mode: Lossy
Bits/(Pixel*Frame): 0.130
Time code of first frame: 00:00:00;00
Time code source: Group of pictures header
GOP, Open/Closed: Open
GOP, Open/Closed of first frame: Closed
Stream size: 2.66 GiB (91%)
Color primaries: BT.709
Transfer characteristics: BT.709
Matrix coefficients: BT.709

- Audio Attributes -
ID: 128 (0x80)
Menu ID: 1 (0x1)
Format: AC-3
Format/Info: Audio Coding 3
Commercial name: Dolby Digital
Codec ID: 129
Bit rate mode: Constant
Bit rate: 384 kb/s
Channel(s): 6 channels
Channel layout: L R C LFE Ls Rs
Sampling rate: 48.0 kHz
Frame rate: 31.250 FPS (1536 SPF)
Compression mode: Lossy
Delay relative to video: 4 ms
Stream size: 130 MiB (4%)
Language: English
Service kind: Complete Main

-Enjoy! Support the artist and buy the officially-released items!

Downloads: 59
Category: Music/Video
Size: 3.1 GB
Show Files »
files
Added: 2022-10-05 10:08:08
Language: English
Peers: Seeders : 13 , Leechers : 3
Tags: b.b. king austin acl grns3 
Release name: B.B. King.- 1982-10-05 - Austin City Limits - GRNS3
Trackers:

udp://tracker.opentrackr.org:1337

udp://tracker.openbittorrent.com:6969/announce

udp://tracker.dler.org:6969/announce

udp://opentracker.i2p.rocks:6969/announce

udp://47.ip-51-68-199.eu:6969/announce

udp://9.rarbg.com:2710/announce

udp://tracker.tiny-vps.com:6969/announce

udp://tracker.torrent.eu.org:451/announce

udp://retracker.lanta-net.ru:2710/announce

udp://tracker.moeking.me:6969/announce

udp://open.stealth.si:80/announce

Download: B.B. King.- 1982-10-05 - Austin City Limits - GRNS3




By using this site you agree to and accept our user agreement. If you havent read the user agreement please do so here