rarbg torrents
Catalog Top 10

Home
RARBG
Movies
XXX
TV Shows
Games
Music
Anime
Apps
Doc
Other
Non XXX

Sensationalists The Bad Girls and Boys of British Art S01E02 Is It Art (1280x720p HD, 50fps, soft Eng subs)

Torrent: Sensationalists The Bad Girls and Boys of British Art S01E02 Is It Art (1280x720p HD, 50fps, soft Eng subs)
VPN:
Downloading torrents is getting riskier every day. Use a VPN to make yourself hidden while downloading torrents.
By using a VPN , your ISP and Government Agencies will not be able to spy on you, neither would they be able to track your online activity!
Description:

Sensationalists The Bad Girls and Boys of British Art S01E02 Is It Art (1280x720p HD, 50fps, soft Eng subs)

In the 1990s, young artists, musicians and creatives use the recession in Britain to their advantage, putting on their own shows in abandoned spaces and warehouses and moving to the run-down and deserted East End of London to live, work and play. / / In an age of marketing and branding, advertising guru Charles Saatchi groups together a series of young, contemporary British artists to provide their experience of Britain, which leads to the first female winner of the Turner Prize, a pickled shark that creates waves, as well as eggs, kebabs and rotting meat - all in the name of art. / / It culminates in Sensation, the iconoclastic exhibition of Saatchi's private collection at the Royal Academy, where the young rebels are placed at the heart of the establishment. The results are explosive - but is it art?

First broadcast: 4 October 2022
Duration: 1 hour

Torrent dead? Request reseed at torrentgalaxy.org - or ask at elsonroa at tutanota.com

Media info:-
General
Format : MPEG-4
Format profile : Base Media
Codec ID : isom (isom/iso2/avc1/mp41)
File size : 2.14 GiB
Duration : 59 min 0 s
Overall bit rate mode : Variable
Overall bit rate : 5 199 kb/s

Video
ID : 1
Format : AVC
Format/Info : Advanced Video Codec
Format profile : [email protected]
Format settings : CABAC / 4 Ref Frames
Format settings, CABAC : Yes
Format settings, Reference frames : 4 frames
Codec ID : avc1
Codec ID/Info : Advanced Video Coding
Duration : 59 min 0 s
Bit rate mode : Variable
Bit rate : 5 061 kb/s
Maximum bit rate : 7 605 kb/s
Width : 1 280 pixels
Height : 720 pixels
Display aspect ratio : 16:9
Frame rate mode : Variable
Frame rate : 50.000 FPS
Minimum frame rate : 25.000 FPS
Maximum frame rate : 90 000.000 FPS
Color space : YUV
Chroma subsampling : 4:2:0
Bit depth : 8 bits
Scan type : Progressive
Bits/(Pixel*Frame) : 0.110
Stream size : 2.09 GiB (97%)
Color range : Limited
Color primaries : BT.709
Transfer characteristics : BT.709
Matrix coefficients : BT.709
Codec configuration box : avcC

Audio
ID : 2
Format : AAC LC
Format/Info : Advanced Audio Codec Low Complexity
Codec ID : mp4a-40-2
Duration : 59 min 0 s
Bit rate mode : Variable
Bit rate : 128 kb/s
Maximum bit rate : 133 kb/s
Channel(s) : 2 channels
Channel layout : L R
Sampling rate : 48.0 kHz
Frame rate : 46.875 FPS (1024 SPF)
Compression mode : Lossy
Stream size : 54.0 MiB (2%)
Language : English

Downloads: 12
Category: TV/HD
Size: 2.1 GB
Show Files »
files
Added: 2022-10-05 10:01:16
Language: English
Peers: Seeders : 2 , Leechers : 4
Release name: Sensationalists The Bad Girls and Boys of British Art S01E02 Is It Art (1280x720p HD, 50fps, soft Eng subs)
Trackers:

udp://open.stealth.si:80/announce

udp://exodus.desync.com:6969/announce

udp://tracker.cyberia.is:6969/announce

udp://tracker.opentrackr.org:1337/announce

udp://tracker.torrent.eu.org:451/announce

udp://explodie.org:6969/announce

udp://tracker.birkenwald.de:6969/announce

udp://tracker.moeking.me:6969/announce

udp://ipv4.tracker.harry.lu:80/announce

udp://9.rarbg.me:2970/announce

https://inferno.demonoid.is/announce

Download: Sensationalists The Bad Girls and Boys of British Art S01E02 Is It Art (1280x720p HD, 50fps, soft Eng subs)




By using this site you agree to and accept our user agreement. If you havent read the user agreement please do so here