rarbg torrents
Catalog Top 10

Home
RARBG
Movies
XXX
TV Shows
Games
Music
Anime
Apps
Doc
Other
Non XXX

The Eagle 2011 720p BRRip x264 MP4 Multisubs AAC-CC

Torrent: The Eagle 2011 720p BRRip x264 MP4 Multisubs AAC-CC
VPN:
Downloading torrents is getting riskier every day. Use a VPN to make yourself hidden while downloading torrents.
By using a VPN , your ISP and Government Agencies will not be able to spy on you, neither would they be able to track your online activity!
Poster:
The Eagle 2011 720p BRRip x264 MP4 Multisubs AAC-CC
Others:
Codec Name S. L. Size

 

Description:



http://www.imdb.com/title/tt1034389

Source: The.Eagle.2011.UNRATED.720p.BluRay.X264-AMIABLE Thanks!

Subs: Arabic, Brazilian, Bulgarian, Croatian, Danish, Dutch, English, Greek, Hebrew, Hungarian, Indonesian, Polish, Portuguese, Romanian, Slovenian, Spanish, Vietnamese.

English hardcoded subs when needed.

Sample and Screens included.

General
Complete name : The Eagle 2011 720p BRRip x264 MP4 Multisubs AAC-CC.mp4
Format : MPEG-4
Format profile : Base Media
Codec ID : isom
File size : 2.46 GiB
Duration : 1h 54mn
Overall bit rate mode : Variable
Overall bit rate : 3 083 Kbps
Encoded date : UTC 2014-05-31 10:56:18
Tagged date : UTC 2014-05-31 10:56:18
Writing application : Yamb 2.1.0.0

Video
ID : 1
Format : AVC
Format/Info : Advanced Video Codec
Format profile : [email protected]
Format settings, CABAC : Yes
Format settings, ReFrames : 5 frames
Codec ID : avc1
Codec ID/Info : Advanced Video Coding
Duration : 1h 54mn
Bit rate : 2 710 Kbps
Maximum bit rate : 22.5 Mbps
Width : 1 280 pixels
Height : 544 pixels
Display aspect ratio : 2.35:1
Frame rate mode : Variable
Frame rate : 23.976 fps
Minimum frame rate : 19.048 fps
Maximum frame rate : 25.000 fps
Color space : YUV
Chroma subsampling : 4:2:0
Bit depth : 8 bits
Scan type : Progressive
Bits/(Pixel*Frame) : 0.162
Stream size : 2.15 GiB (87%)
Writing library : x264 core 112
Encoding settings : cabac=1 / ref=5 / deblock=1:0:0 / analyse=0x3:0x113 / me=hex / subme=7 / psy=1 / psy_rd=1.00:0.00 / mixed_ref=1 / me_range=16 / chroma_me=1 / trellis=1 / 8x8dct=1 / cqm=0 / deadzone=21,11 / fast_pskip=1 / chroma_qp_offset=-2 / threads=3 / sliced_threads=0 / nr=0 / decimate=1 / interlaced=0 / constrained_intra=0 / bframes=5 / b_pyramid=2 / b_adapt=2 / b_bias=0 / direct=1 / weightb=1 / open_gop=0 / weightp=2 / keyint=240 / keyint_min=23 / scenecut=40 / intra_refresh=0 / rc_lookahead=50 / rc=abr / mbtree=1 / bitrate=2710 / ratetol=1.0 / qcomp=0.60 / qpmin=3 / qpmax=51 / qpstep=4 / ip_ratio=1.40 / aq=1:1.00
Encoded date : UTC 2014-05-31 22:10:37
Tagged date : UTC 2014-05-31 11:00:15
Color primaries : BT.709
Transfer characteristics : BT.709
Matrix coefficients : BT.709

Audio
ID : 2
Format : AAC
Format/Info : Advanced Audio Codec
Format profile : LC
Codec ID : 40
Duration : 1h 54mn
Bit rate mode : Variable
Bit rate : 384 Kbps
Maximum bit rate : 688 Kbps
Channel(s) : 6 channels
Channel positions : Front: L C R, Side: L R, LFE
Sampling rate : 48.0 KHz
Compression mode : Lossy
Delay relative to video : 83ms
Stream size : 313 MiB (12%)
Language : English
Encoded date : UTC 2014-05-31 10:59:12
Tagged date : UTC 2014-05-31 11:00:15

Enjoy...

Requested by MartinKC

Coming soon: The Birdcage, Inception, War Horse and many more.

Downloads: 41
Category: Movies/Mp4
Size: 2.5 GB
Show Files »
files
Added: 2015-06-21 12:26:41
Language: English
Title: The Eagle
Rating: 60
Genres: Drama
Year: 2011
Summery: In 140 AD, twenty years after the unexplained disappearance of the entire Ninth Legion in the mountains of Scotland, young centurion Marcus Aquila (Tatum) arrives from Rome to solve the mystery and restore the reputation of his father, the commander of the Ninth. Accompanied only by his British slave Esca (Bell), Marcus sets out across Hadrian's Wall into the uncharted highlands of Caledonia - to confront its savage tribes, make peace with his father's memory, and retrieve the lost legion's golden emblem, the Eagle of the Ninth.
Peers: Seeders : 1 , Leechers : 0
Tags: action adventure 720p x264 BRRip Multisubs 
Release name: The Eagle 2011 720p BRRip x264 MP4 Multisubs AAC-CC
Trackers:

udp://open.demonii.com:1337/announce

udp://tracker.token.ro:80/announce

udp://tracker.openbittorrent.com:80

udp://tracker.publichd.eu/announce

udp://tracker.istole.it:80/announce

http://exodus.desync.com:6969/announce

udp://9.rarbg.com:2710/announce

udp://tracker.publicbt.com:80/announce

http://tracker.thepiratebay.org/announce

http://94.228.192.98/announce

udp://coppersurfer.tk:6969/announce

udp://11.rarbg.com/announce

http://tracker.flashtorrents.org:6969/announce

Download: The Eagle 2011 720p BRRip x264 MP4 Multisubs AAC-CC




By using this site you agree to and accept our user agreement. If you havent read the user agreement please do so here